Direct Download Free Movies Mp3's Software Programs Stock Images » MOVIES » GHOUL - S01 COMPLETE 1080p NetFlix WEBRip DDP5.1 x264-NTb 

GHOUL - S01 COMPLETE 1080p NetFlix WEBRip DDP5.1 x264-NTb

GHOUL - S01 COMPLETE 1080p NetFlix WEBRip DDP5.1 x264-NTb


GHOUL - S01 COMPLETE 1080p NetFlix WEBRip DDP5.1 x264-NTb


HI-SPEED DOWNLOAD
Free 300 GB with Full DSL-Broadband Speed!



When a new prisoner (Ali Saieed) at a military detention center exhibits eerie behavior, a young interrogator's (Nida Rahim) search for the truth becomes a battle for survival. After exposing her father's anti-government activities, Nida Rahim is inducted as the newest interrogator at the remote Meghdoot 31 detention center. Flashes of the past begin to haunt Nida. When sect leader Saeed is brought for questioning, his unnerving answers lead her to suspect his motives. Nida learns of the ghoul inhabiting Saeed. Upon telling her fellow interrogators, she learns the alarming truth about what its presence reveals.

GHOUL - S01 COMPLETE 1080p NetFlix WEBRip DDP5.1 x264-NTb

GHOUL - S01 COMPLETE 1080p NetFlix WEBRip DDP5.1 x264-NTb

http://www.imdb.com/title/tt5909930/

Video
ID : 1
Format : AVC
Format/Info : Advanced Video Codec
Format profile : [email protected]
Format settings : CABAC / 3 Ref Frames
Format settings, CABAC : Yes
Format settings, ReFrames : 3 frames
Codec ID : V_MPEG4/ISO/AVC
Duration : 44 min 18 s
Bit rate mode : Variable
Bit rate : 3 480 kb/s
Maximum bit rate : 5 220 kb/s
Width : 1 920 pixels
Height : 1 080 pixels
Display aspect ratio : 16:9
Frame rate mode : Constant
Frame rate : 24.000 FPS
Color space : YUV
Chroma subsampling : 4:2:0
Bit depth : 8 bits
Scan type : Progressive
Bits/(Pixel*Frame) : 0.070
Stream size : 1.06 GiB (84%)
Writing library : x264 core 148 r2715 7e75228
Default : Yes
Forced : No

Audio
ID : 2
Format : E-AC-3
Format/Info : Enhanced Audio Coding 3
Codec ID : A_EAC3
Duration : 44 min 18 s
Bit rate mode : Constant
Bit rate : 640 kb/s
Channel(s) : 6 channels
Channel positions : Front: L C R, Side: L R, LFE
Sampling rate : 48.0 kHz
Frame rate : 187.500 FPS (256 SPF)
Compression mode : Lossy
Stream size : 203 MiB (16%)
Title : Hindi
Language : Hindi
Service kind : Complete Main
Default : Yes
Forced : No

Text #1
ID : 3
Format : UTF-8
Codec ID : S_TEXT/UTF8
Codec ID/Info : UTF-8 Plain Text
Duration : 34 min 37 s
Bit rate : 2 b/s
Count of elements : 6
Stream size : 570 Bytes (0%)
Title : Forced
Language : Hindi
Default : Yes
Forced : Yes

Text #2
ID : 4
Format : UTF-8
Codec ID : S_TEXT/UTF8
Codec ID/Info : UTF-8 Plain Text
Duration : 39 min 33 s
Bit rate : 42 b/s
Count of elements : 433
Stream size : 12.2 KiB (0%)
Title : SDH
Language : English
Default : No
Forced : No

Text #3
ID : 5
Format : UTF-8
Codec ID : S_TEXT/UTF8
Codec ID/Info : UTF-8 Plain Text
Duration : 39 min 33 s
Bit rate : 40 b/s
Count of elements : 429
Stream size : 11.7 KiB (0%)
Language : English
Default : No
Forced : No

Text #4
ID : 6
Format : UTF-8
Codec ID : S_TEXT/UTF8
Codec ID/Info : UTF-8 Plain Text
Duration : 40 min 6 s
Bit rate : 57 b/s
Count of elements : 350
Stream size : 17.0 KiB (0%)
Language : Arabic
Default : No
Forced : No

Text #5
ID : 7
Format : UTF-8
Codec ID : S_TEXT/UTF8
Codec ID/Info : UTF-8 Plain Text
Duration : 40 min 6 s
Bit rate : 24 b/s
Count of elements : 317
Stream size : 7.28 KiB (0%)
Language : Danish
Default : No
Forced : No

Text #6
ID : 8
Format : UTF-8
Codec ID : S_TEXT/UTF8
Codec ID/Info : UTF-8 Plain Text
Duration : 40 min 5 s
Bit rate : 35 b/s
Count of elements : 337
Stream size : 10.3 KiB (0%)
Language : German
Default : No
Forced : No

Text #7
ID : 9
Format : UTF-8
Codec ID : S_TEXT/UTF8
Codec ID/Info : UTF-8 Plain Text
Duration : 40 min 6 s
Bit rate : 52 b/s
Count of elements : 342
Stream size : 15.5 KiB (0%)
Language : Greek
Default : No
Forced : No

Text #8
ID : 10
Format : UTF-8
Codec ID : S_TEXT/UTF8
Codec ID/Info : UTF-8 Plain Text
Duration : 40 min 6 s
Bit rate : 30 b/s
Count of elements : 348
Stream size : 9.00 KiB (0%)
Language : Spanish
Default : No
Forced : No

Text #9
ID : 11
Format : UTF-8
Codec ID : S_TEXT/UTF8
Codec ID/Info : UTF-8 Plain Text
Duration : 40 min 6 s
Bit rate : 31 b/s
Count of elements : 338
Stream size : 9.19 KiB (0%)
Title : European
Language : Spanish
Default : No
Forced : No

Text #10
ID : 12
Format : UTF-8
Codec ID : S_TEXT/UTF8
Codec ID/Info : UTF-8 Plain Text
Duration : 40 min 6 s
Bit rate : 29 b/s
Count of elements : 332
Stream size : 8.77 KiB (0%)
Language : Finnish
Default : No
Forced : No

Text #11
ID : 13
Format : UTF-8
Codec ID : S_TEXT/UTF8
Codec ID/Info : UTF-8 Plain Text
Duration : 40 min 6 s
Bit rate : 32 b/s
Count of elements : 333
Stream size : 9.57 KiB (0%)
Language : French
Default : No
Forced : No

Text #12
ID : 14
Format : UTF-8
Codec ID : S_TEXT/UTF8
Codec ID/Info : UTF-8 Plain Text
Duration : 40 min 6 s
Bit rate : 49 b/s
Count of elements : 344
Stream size : 14.6 KiB (0%)
Language : Hebrew
Default : No
Forced : No

Text #13
ID : 15
Format : UTF-8
Codec ID : S_TEXT/UTF8
Codec ID/Info : UTF-8 Plain Text
Duration : 41 min 15 s
Bit rate : 81 b/s
Count of elements : 422
Stream size : 24.6 KiB (0%)
Title : SDH
Language : Hindi
Default : No
Forced : No

Text #14
ID : 16
Format : UTF-8
Codec ID : S_TEXT/UTF8
Codec ID/Info : UTF-8 Plain Text
Duration : 40 min 6 s
Bit rate : 32 b/s
Count of elements : 373
Stream size : 9.42 KiB (0%)
Language : Italian
Default : No
Forced : No

Text #15
ID : 17
Format : UTF-8
Codec ID : S_TEXT/UTF8
Codec ID/Info : UTF-8 Plain Text
Duration : 40 min 6 s
Bit rate : 27 b/s
Count of elements : 349
Stream size : 8.17 KiB (0%)
Language : Japanese
Default : No
Forced : No

Text #16
ID : 18
Format : UTF-8
Codec ID : S_TEXT/UTF8
Codec ID/Info : UTF-8 Plain Text
Duration : 40 min 6 s
Bit rate : 33 b/s
Count of elements : 350
Stream size : 9.97 KiB (0%)
Language : Korean
Default : No
Forced : No

Text #17
ID : 19
Format : UTF-8
Codec ID : S_TEXT/UTF8
Codec ID/Info : UTF-8 Plain Text
Duration : 40 min 6 s
Bit rate : 31 b/s
Count of elements : 321
Stream size : 9.28 KiB (0%)
Language : Norwegian Bokmal
Default : No
Forced : No

Text #18
ID : 20
Format : UTF-8
Codec ID : S_TEXT/UTF8
Codec ID/Info : UTF-8 Plain Text
Duration : 39 min 59 s
Bit rate : 28 b/s
Count of elements : 316
Stream size : 8.29 KiB (0%)
Language : Dutch
Default : No
Forced : No

Text #19
ID : 21
Format : UTF-8
Codec ID : S_TEXT/UTF8
Codec ID/Info : UTF-8 Plain Text
Duration : 40 min 6 s
Bit rate : 26 b/s
Count of elements : 335
Stream size : 7.86 KiB (0%)
Language : Polish
Default : No
Forced : No

Text #20
ID : 22
Format : UTF-8
Codec ID : S_TEXT/UTF8
Codec ID/Info : UTF-8 Plain Text
Duration : 40 min 6 s
Bit rate : 31 b/s
Count of elements : 320
Stream size : 9.12 KiB (0%)
Language : Portuguese
Default : No
Forced : No

Text #21
ID : 23
Format : UTF-8
Codec ID : S_TEXT/UTF8
Codec ID/Info : UTF-8 Plain Text
Duration : 40 min 6 s
Bit rate : 30 b/s
Count of elements : 343
Stream size : 8.89 KiB (0%)
Title : Brazilian
Language : Portuguese
Default : No
Forced : No

Text #22
ID : 24
Format : UTF-8
Codec ID : S_TEXT/UTF8
Codec ID/Info : UTF-8 Plain Text
Duration : 40 min 6 s
Bit rate : 32 b/s
Count of elements : 338
Stream size : 9.58 KiB (0%)
Language : Romanian
Default : No
Forced : No

Text #23
ID : 25
Format : UTF-8
Codec ID : S_TEXT/UTF8
Codec ID/Info : UTF-8 Plain Text
Duration : 40 min 6 s
Bit rate : 30 b/s
Count of elements : 336
Stream size : 8.89 KiB (0%)
Language : Swedish
Default : No
Forced : No

Text #24
ID : 26
Format : UTF-8
Codec ID : S_TEXT/UTF8
Codec ID/Info : UTF-8 Plain Text
Duration : 40 min 6 s
Bit rate : 78 b/s
Count of elements : 344
Stream size : 23.1 KiB (0%)
Language : Thai
Default : No
Forced : No

Text #25
ID : 27
Format : UTF-8
Codec ID : S_TEXT/UTF8
Codec ID/Info : UTF-8 Plain Text
Duration : 40 min 6 s
Bit rate : 29 b/s
Count of elements : 351
Stream size : 8.61 KiB (0%)
Language : Turkish
Default : No
Forced : No

Text #26
ID : 28
Format : UTF-8
Codec ID : S_TEXT/UTF8
Codec ID/Info : UTF-8 Plain Text
Duration : 40 min 6 s
Bit rate : 29 b/s
Count of elements : 332
Stream size : 8.78 KiB (0%)
Title : Simplified
Language : Chinese
Default : No
Forced : No

Text #27
ID : 29
Format : UTF-8
Codec ID : S_TEXT/UTF8
Codec ID/Info : UTF-8 Plain Text
Duration : 40 min 6 s
Bit rate : 29 b/s
Count of elements : 336
Stream size : 8.54 KiB (0%)
Title : Traditional
Language : Chinese
Default : No
Forced : No


http://www.keeplinks.co/p20/5b86e70700235




GHOUL - S01 COMPLETE 1080p NetFlix WEBRip DDP5.1 x264-NTb

14 Days Free Access to USENET
Free 300 GB with full DSL-Broadband Speed!




 Register | Forgot your password?




  • GFXTRA.COM
  • New Fonts
  • New Envato
  • Full Downloads
  • Torrent Search
  • Wow E-books
  • Video Training
  • 10k+ daily uniques and pr3 or above PM me
  • SitemapBarriers in Communication - 1064 Words | HD Edge of the Empire (2010) | [P] 01006a800016e000 nsp