Direct Download Free Movies Mp3's Software Programs Stock Images » MOVIES » Deadwind - S01 COMPLETE 1080p NetFlix WEBRip DDP5.1 x264-NTb 

Deadwind - S01 COMPLETE 1080p NetFlix WEBRip DDP5.1 x264-NTb

Deadwind - S01 COMPLETE 1080p NetFlix WEBRip DDP5.1 x264-NTb


Deadwind - S01 COMPLETE 1080p NetFlix WEBRip DDP5.1 x264-NTb


HI-SPEED DOWNLOAD
Free 300 GB with Full DSL-Broadband Speed!



When Sofia Karppi, a detective in her 30's who is trying to get over her husband's death, discovers the body of a young woman on a construction site, she triggers a chain of events that threatens to destroy her life again. Deadwind is a highly thrilling series from Finland mixing crime investigation and personal drama.

http://www.imdb.com/title/tt6616260/

Video
ID : 1
Format : AVC
Format/Info : Advanced Video Codec
Format profile : [email protected]
Format settings : CABAC / 3 Ref Frames
Format settings, CABAC : Yes
Format settings, ReFrames : 3 frames
Codec ID : V_MPEG4/ISO/AVC
Duration : 46 min 42 s
Bit rate mode : Variable
Bit rate : 4 640 kb/s
Maximum bit rate : 6 960 kb/s
Width : 1 920 pixels
Height : 1 080 pixels
Display aspect ratio : 16:9
Frame rate mode : Constant
Frame rate : 25.000 FPS
Color space : YUV
Chroma subsampling : 4:2:0
Bit depth : 8 bits
Scan type : Progressive
Bits/(Pixel*Frame) : 0.090
Stream size : 1.50 GiB (88%)
Writing library : x264 core 148 r2715 7e75228
Default : Yes
Forced : No

Audio
ID : 2
Format : E-AC-3
Format/Info : Enhanced Audio Coding 3
Codec ID : A_EAC3
Duration : 46 min 42 s
Bit rate mode : Constant
Bit rate : 640 kb/s
Channel(s) : 6 channels
Channel positions : Front: L C R, Side: L R, LFE
Sampling rate : 48.0 kHz
Frame rate : 187.500 FPS (256 SPF)
Compression mode : Lossy
Stream size : 214 MiB (12%)
Title : Finnish
Language : Finnish
Service kind : Complete Main
Default : Yes
Forced : No

Text #1
ID : 3
Format : UTF-8
Codec ID : S_TEXT/UTF8
Codec ID/Info : UTF-8 Plain Text
Duration : 43 min 55 s
Bit rate : 9 b/s
Count of elements : 132
Stream size : 3.01 KiB (0%)
Title : Forced
Language : Finnish
Default : Yes
Forced : Yes

Text #2
ID : 4
Format : UTF-8
Codec ID : S_TEXT/UTF8
Codec ID/Info : UTF-8 Plain Text
Duration : 42 min 36 s
Bit rate : 58 b/s
Count of elements : 468
Stream size : 18.2 KiB (0%)
Language : English
Default : No
Forced : No

Text #3
ID : 5
Format : UTF-8
Codec ID : S_TEXT/UTF8
Codec ID/Info : UTF-8 Plain Text
Duration : 44 min 4 s
Bit rate : 90 b/s
Count of elements : 454
Stream size : 29.1 KiB (0%)
Language : Arabic
Default : No
Forced : No

Text #4
ID : 6
Format : UTF-8
Codec ID : S_TEXT/UTF8
Codec ID/Info : UTF-8 Plain Text
Duration : 42 min 36 s
Bit rate : 83 b/s
Count of elements : 466
Stream size : 26.0 KiB (0%)
Language : Bulgarian
Default : No
Forced : No

Text #5
ID : 7
Format : UTF-8
Codec ID : S_TEXT/UTF8
Codec ID/Info : UTF-8 Plain Text
Duration : 44 min 4 s
Bit rate : 48 b/s
Count of elements : 465
Stream size : 15.6 KiB (0%)
Language : Danish
Default : No
Forced : No

Text #6
ID : 8
Format : UTF-8
Codec ID : S_TEXT/UTF8
Codec ID/Info : UTF-8 Plain Text
Duration : 42 min 36 s
Bit rate : 81 b/s
Count of elements : 453
Stream size : 25.5 KiB (0%)
Language : Greek
Default : No
Forced : No

Text #7
ID : 9
Format : UTF-8
Codec ID : S_TEXT/UTF8
Codec ID/Info : UTF-8 Plain Text
Duration : 44 min 4 s
Bit rate : 44 b/s
Count of elements : 470
Stream size : 14.4 KiB (0%)
Language : Spanish
Default : No
Forced : No

Text #8
ID : 10
Format : UTF-8
Codec ID : S_TEXT/UTF8
Codec ID/Info : UTF-8 Plain Text
Duration : 44 min 4 s
Bit rate : 45 b/s
Count of elements : 460
Stream size : 14.5 KiB (0%)
Title : European
Language : Spanish
Default : No
Forced : No

Text #9
ID : 11
Format : UTF-8
Codec ID : S_TEXT/UTF8
Codec ID/Info : UTF-8 Plain Text
Duration : 43 min 55 s
Bit rate : 64 b/s
Count of elements : 562
Stream size : 20.8 KiB (0%)
Title : SDH
Language : Finnish
Default : No
Forced : No

Text #10
ID : 12
Format : UTF-8
Codec ID : S_TEXT/UTF8
Codec ID/Info : UTF-8 Plain Text
Duration : 44 min 4 s
Bit rate : 70 b/s
Count of elements : 478
Stream size : 22.6 KiB (0%)
Language : Hebrew
Default : No
Forced : No

Text #11
ID : 13
Format : UTF-8
Codec ID : S_TEXT/UTF8
Codec ID/Info : UTF-8 Plain Text
Duration : 44 min 4 s
Bit rate : 44 b/s
Count of elements : 478
Stream size : 14.3 KiB (0%)
Language : Italian
Default : No
Forced : No

Text #12
ID : 14
Format : UTF-8
Codec ID : S_TEXT/UTF8
Codec ID/Info : UTF-8 Plain Text
Duration : 44 min 4 s
Bit rate : 44 b/s
Count of elements : 497
Stream size : 14.4 KiB (0%)
Language : Japanese
Default : No
Forced : No

Text #13
ID : 15
Format : UTF-8
Codec ID : S_TEXT/UTF8
Codec ID/Info : UTF-8 Plain Text
Duration : 42 min 36 s
Bit rate : 55 b/s
Count of elements : 474
Stream size : 17.3 KiB (0%)
Language : Korean
Default : No
Forced : No

Text #14
ID : 16
Format : UTF-8
Codec ID : S_TEXT/UTF8
Codec ID/Info : UTF-8 Plain Text
Duration : 42 min 36 s
Bit rate : 46 b/s
Count of elements : 468
Stream size : 14.6 KiB (0%)
Language : Norwegian Bokmal
Default : No
Forced : No

Text #15
ID : 17
Format : UTF-8
Codec ID : S_TEXT/UTF8
Codec ID/Info : UTF-8 Plain Text
Duration : 42 min 36 s
Bit rate : 44 b/s
Count of elements : 455
Stream size : 13.8 KiB (0%)
Language : Dutch
Default : No
Forced : No

Text #16
ID : 18
Format : UTF-8
Codec ID : S_TEXT/UTF8
Codec ID/Info : UTF-8 Plain Text
Duration : 44 min 4 s
Bit rate : 46 b/s
Count of elements : 494
Stream size : 15.0 KiB (0%)
Language : Polish
Default : No
Forced : No

Text #17
ID : 19
Format : UTF-8
Codec ID : S_TEXT/UTF8
Codec ID/Info : UTF-8 Plain Text
Duration : 44 min 4 s
Bit rate : 46 b/s
Count of elements : 523
Stream size : 15.0 KiB (0%)
Language : Portuguese
Default : No
Forced : No

Text #18
ID : 20
Format : UTF-8
Codec ID : S_TEXT/UTF8
Codec ID/Info : UTF-8 Plain Text
Duration : 44 min 4 s
Bit rate : 46 b/s
Count of elements : 462
Stream size : 15.1 KiB (0%)
Title : Brazilian
Language : Portuguese
Default : No
Forced : No

Text #19
ID : 21
Format : UTF-8
Codec ID : S_TEXT/UTF8
Codec ID/Info : UTF-8 Plain Text
Duration : 42 min 36 s
Bit rate : 51 b/s
Count of elements : 472
Stream size : 16.1 KiB (0%)
Language : Romanian
Default : No
Forced : No

Text #20
ID : 22
Format : UTF-8
Codec ID : S_TEXT/UTF8
Codec ID/Info : UTF-8 Plain Text
Duration : 42 min 36 s
Bit rate : 42 b/s
Count of elements : 469
Stream size : 13.3 KiB (0%)
Language : Swedish
Default : No
Forced : No

Text #21
ID : 23
Format : UTF-8
Codec ID : S_TEXT/UTF8
Codec ID/Info : UTF-8 Plain Text
Duration : 42 min 36 s
Bit rate : 116 b/s
Count of elements : 472
Stream size : 36.3 KiB (0%)
Language : Thai
Default : No
Forced : No

Text #22
ID : 24
Format : UTF-8
Codec ID : S_TEXT/UTF8
Codec ID/Info : UTF-8 Plain Text
Duration : 44 min 4 s
Bit rate : 45 b/s
Count of elements : 467
Stream size : 14.5 KiB (0%)
Language : Turkish
Default : No
Forced : No

Text #23
ID : 25
Format : UTF-8
Codec ID : S_TEXT/UTF8
Codec ID/Info : UTF-8 Plain Text
Duration : 44 min 4 s
Bit rate : 41 b/s
Count of elements : 474
Stream size : 13.3 KiB (0%)
Title : Simplified
Language : Chinese
Default : No
Forced : No

Text #24
ID : 26
Format : UTF-8
Codec ID : S_TEXT/UTF8
Codec ID/Info : UTF-8 Plain Text
Duration : 42 min 36 s
Bit rate : 44 b/s
Count of elements : 468
Stream size : 13.8 KiB (0%)
Title : Traditional
Language : Chinese
Default : No
Forced : No


http://www.keeplinks.co/p20/5b86e6629028f




Deadwind - S01 COMPLETE 1080p NetFlix WEBRip DDP5.1 x264-NTb

14 Days Free Access to USENET
Free 300 GB with full DSL-Broadband Speed!




 Register | Forgot your password?




  • GFXTRA.COM
  • New Fonts
  • New Envato
  • Full Downloads
  • Torrent Search
  • Wow E-books
  • Video Training
  • 10k+ daily uniques and pr3 or above PM me
  • SitemapKostiumowy | Martin Garrix Ocean (feat. Khalid) | Tara Duncan